Hello guest, if you like this forum, why don't you register? https://fanrestore.com/member.php?action=register (December 14, 2021) x


Thread Rating:
  • 0 Vote(s) - 0 Average
  • 1
  • 2
  • 3
  • 4
  • 5
Drive 2011 Open Matte
#1
I thought share my little personal project (and first ever) here.

As there are only rumors that a UHD version of this wonderful movie (in my opinion) should be released in the nearer future, i decided to make the wait bearable and take the bluray and an Open Matte Version of "Drive" - who doesn´t love more picture - and create a hybrid version (wih the tremendous help of spoRv), because not all have access to the famous meican OM bluray release.

Audio:
  • DTS XLL 5.1 as flac (audacity couldn´t export it in .wav due to the 4Gb limit - the hell i know why would the dts track from the bluray become bigger afterwards)
  • AC3 5.1 640 kb/s

And a little case artwork that "theryaney" (from fanedit.org) did for me

   



Code:
Format                                   : AVC
Format/Info                              : Advanced Video Codec
Format profile                           : High@L4.1
Format settings                          : CABAC / 4 Ref Frames
Format settings, CABAC                   : Yes
Format settings, Reference frames        : 4 frames
Format settings, GOP                     : M=1, N=12
Codec ID                                 : V_MPEG4/ISO/AVC
Duration                                 : 1 h 40 min
Bit rate                                 : 38.2 Mb/s
Width                                    : 1 920 pixels
Height                                   : 1 080 pixels
Display aspect ratio                     : 16:9
Frame rate mode                          : Constant
Frame rate                               : 23.976 (24000/1001) FPS
Standard                                 : Component
Color space                              : YUV
Chroma subsampling                       : 4:2:0
Bit depth                                : 8 bits
Scan type                                : Progressive
Bits/(Pixel*Frame)                       : 0.769
Stream size                              : 26.8 GiB (91%)
Default                                  : Yes
Forced                                   : No
Color range                              : Limited
Reply
Thanks given by: Hitcher , nat , interaser
#2
I thought this was a great movie so it’s cool to see your project for it! I did a search but didn’t find another thread for Drive and the version by Thakur that you mention...

I’m curious about Thakur’s source! I saw that there was an apparent Mexico Blu-ray release in open matte, but it seems to be long out of print by now. I wish I had it in my collection!
Reply
Thanks given by:
#3
As far as i know his source should be the mexican bluray, but he encoded it to death (video stream with 2,4 mb/s) and since i´m not able to get said blu-ray, i decided to "upscale" his encode.
Reply
Thanks given by:
#4
There's a better version available -

Code:
General
Unique ID                                : 186013572899916733932320295036506590530 (0x8BF0E93805026476DA3000EF267BCD42)
Complete name                            : Z:\movies-open_matte\Drive (2011)\Drive.2011.Open.Matte.1080p.Blu-ray.Remux.AVC.DTS-HD.MA5.1.mkv
Format                                   : Matroska
Format version                           : Version 4
File size                                : 18.9 GiB
Duration                                 : 1 h 40 min
Overall bit rate mode                    : Variable
Overall bit rate                         : 26.9 Mb/s
Movie name                               : Drive (2011)
Encoded date                             : UTC 2020-11-12 04:36:15
Writing application                      : mkvmerge v49.0.0 ('Sick Of Losing Soulmates') 64-bit
Writing library                          : libebml v1.4.0 + libmatroska v1.6.1

Video
ID                                       : 1
Format                                   : AVC
Format/Info                              : Advanced Video Codec
Format profile                           : High@L4.1
Format settings                          : CABAC / 4 Ref Frames
Format settings, CABAC                   : Yes
Format settings, Reference frames        : 4 frames
Format settings, GOP                     : M=3, N=24
Codec ID                                 : V_MPEG4/ISO/AVC
Duration                                 : 1 h 40 min
Bit rate mode                            : Variable
Bit rate                                 : 23.3 Mb/s
Maximum bit rate                         : 30.0 Mb/s
Width                                    : 1 920 pixels
Height                                   : 1 080 pixels
Display aspect ratio                     : 16:9
Frame rate mode                          : Constant
Frame rate                               : 23.976 (24000/1001) FPS
Standard                                 : NTSC
Color space                              : YUV
Chroma subsampling                       : 4:2:0
Bit depth                                : 8 bits
Scan type                                : Progressive
Bits/(Pixel*Frame)                       : 0.468
Stream size                              : 16.3 GiB (86%)
Default                                  : Yes
Forced                                   : No
Color range                              : Limited
Color primaries                          : BT.709
Transfer characteristics                 : BT.709
Matrix coefficients                      : BT.709

Audio #1
ID                                       : 2
Format                                   : DTS XLL
Format/Info                              : Digital Theater Systems
Commercial name                          : DTS-HD Master Audio
Codec ID                                 : A_DTS
Duration                                 : 1 h 40 min
Bit rate mode                            : Variable
Bit rate                                 : 3 215 kb/s
Channel(s)                               : 6 channels
Channel layout                           : C L R Ls Rs LFE
Sampling rate                            : 48.0 kHz
Frame rate                               : 93.750 FPS (512 SPF)
Bit depth                                : 24 bits
Compression mode                         : Lossless
Stream size                              : 2.25 GiB (12%)
Title                                    : DTS-HD MA 5.1
Language                                 : English
Default                                  : Yes
Forced                                   : No

Audio #2
ID                                       : 3
Format                                   : AC-3
Format/Info                              : Audio Coding 3
Commercial name                          : Dolby Digital
Codec ID                                 : A_AC3
Duration                                 : 1 h 40 min
Bit rate mode                            : Constant
Bit rate                                 : 448 kb/s
Channel(s)                               : 6 channels
Channel layout                           : L R C LFE Ls Rs
Sampling rate                            : 48.0 kHz
Frame rate                               : 31.250 FPS (1536 SPF)
Compression mode                         : Lossy
Stream size                              : 321 MiB (2%)
Title                                    : DD5.1
Language                                 : English
Service kind                             : Complete Main
Default                                  : No
Forced                                   : No

Text
ID                                       : 4
Format                                   : UTF-8
Codec ID                                 : S_TEXT/UTF8
Codec ID/Info                            : UTF-8 Plain Text
Duration                                 : 1 h 30 min
Bit rate                                 : 31 b/s
Count of elements                        : 692
Stream size                              : 20.7 KiB (0%)
Title                                    : English
Language                                 : English
Default                                  : Yes
Forced                                   : No
Reply
Thanks given by: nat


Possibly Related Threads…
Thread Author Replies Views Last Post
  [No Longer Available] The Fellowship of the Ring Variable Aspect Ratio aka Open Matte PDB 49 22,094 2022-09-25, 06:58 AM
Last Post: CaveDoctor
Video [Released] Mortal Kombat (1995) - Open Matte Komposite CORTICALSYSTEMS 11 1,996 2022-09-23, 04:46 PM
Last Post: CORTICALSYSTEMS
  [Released] Showgirls - Remastered Open Matte - Cinema Polish Colek 34 24,103 2022-09-02, 04:16 AM
Last Post: Maniaco
  [No Longer Available] Quantum Of Solace Open Matte PDB 42 12,265 2022-06-17, 12:02 AM
Last Post: Hitcher
  [No Longer Available] Skyfall Open Matte (aka Skyfall IMAX Version) PDB 82 22,874 2022-06-10, 10:50 AM
Last Post: SHM
  [Released] Equilibrium 2002 VAR Open Matte Crossmux deleted user 16 10,262 2022-05-02, 02:41 AM
Last Post: Red41804
  [Released] Riddick (2013) [EXTENDED] Open Matte [VAR] Hybrid Hitcher 5 696 2022-03-01, 06:55 AM
Last Post: JShelton
  [Released] Alien: Covenant - IMAX/Open Matte/2.40:1 VAR Hybrid Hitcher 8 672 2022-01-15, 01:15 AM
Last Post: Hitcher
  [Released] Harry Potter saga - open matte spoRv 375 228,762 2022-01-02, 06:44 PM
Last Post: Hitcher
  [Released] Déjà Vu (2006) Open Matte Hitcher 1 491 2021-12-24, 12:27 PM
Last Post: Hitcher

Forum Jump:


Users browsing this thread: 1 Guest(s)