Hello guest, if you like this forum, why don't you register? https://fanrestore.com/member.php?action=register (December 14, 2021) x


Thread Rating:
  • 2 Vote(s) - 5 Average
  • 1
  • 2
  • 3
  • 4
  • 5
[Released] Prometheus (2012) (open matte) [Fundamental Collection™ #023]
#1
Prometheus [Fundamental Collection]

[Image: Prometheus_cover.jpg]

Original title: Prometheus
Original runtime: 2h03m46s
Source: HDTV as main source, WEBdl as second source, another HDTV as third source
Video processing: HDTV with logo was used as main source, because of its higher quality, and WEBdl was used to get rid of the TV logo, and taken as color reference; a second HDTV source was used for the few shots with writings (main title, Skye island, space mission details); deblocking; very light sharpening; color correction to cancel teal blanket and get back right skin color and white balance; 35mm grain plate
Audio processing: none
Video format: x264 1920x1080 23.976fps open matte 1.78:1
Audio format: DTS-HD MA 7.1 English; DD 5.1 English audio description; DTS 5.1 French, German, Italian, Spanish, Russian, Portuguese, Japanese; 2x DD 2.0 224kbps English commentaries
Subtitles: English, French, German, Italian, Spanish, Russian, Portuguese, Japanese (movie); English, German, Italian, Spanish, Russian, Japanese (commentaries)
Chapters: 36
Release notes: less than 5% of the whole movie (excluding final credits) used WEBdl as sole source, because main HDTV one has huge pop-ups that could be not deleted efficiently otherwise, or has some frames with glitches
Release format: BD-50

Screenshots:

[Image: Prometheus_FC_00h08m04s.png]

[Image: Prometheus_FC_00h21m04s.png]

[Image: Prometheus_FC_01h06m06s.png]

[Image: Prometheus_FC_01h13m10s.png]

Comparison:
http://screenshotcomparison.com/comparison/125457

Mediainfo
Complete name : 00000.m2ts
Format : BDAV
Format/Info : Blu-ray Video
File size : 38.7 GiB
Duration : 2 h 3 min
Overall bit rate mode : Variable
Overall bit rate : 44.8 Mb/s
Maximum Overall bit rate : 35.5 Mb/s

Video
ID : 4113 (0x1011)
Menu ID : 1 (0x1)
Format : AVC
Format/Info : Advanced Video Codec
Format profile : High@L4.1
Format settings, CABAC : Yes
Format settings, ReFrames : 4 frames
Codec ID : 27
Duration : 2 h 3 min
Bit rate mode : Variable
Maximum bit rate : 40.0 Mb/s
Width : 1 920 pixels
Height : 1 080 pixels
Display aspect ratio : 16:9
Frame rate : 23.976 (24000/1001) FPS
Color space : YUV
Chroma subsampling : 4:2:0
Bit depth : 8 bits
Scan type : Progressive
Color range : Limited
Color primaries : BT.709
Transfer characteristics : BT.709
Matrix coefficients : BT.709

Audio #1
ID : 4352 (0x1100)
Menu ID : 1 (0x1)
Format : DTS
Format/Info : Digital Theater Systems
Format profile : MA / Core
Mode : 16
Format settings, Endianness : Big
Muxing mode : Stream extension
Codec ID : 134
Duration : 2 h 3 min
Bit rate mode : Variable / Constant
Bit rate : Unknown / 1 509 kb/s
Channel(s) : 8 channels / 6 channels
Channel positions : Front: L C R, Side: L R, Back: L R, LFE / Front: L C R, Side: L R, LFE
Sampling rate : 48.0 kHz
Frame rate : 93.750 FPS (512 spf)
Bit depth : 24 bits
Compression mode : Lossless / Lossy

Audio #2
ID : 4353 (0x1101)
Menu ID : 1 (0x1)
Format : DTS
Format/Info : Digital Theater Systems
Mode : 16
Format settings, Endianness : Big
Codec ID : 130
Duration : 2 h 3 min
Bit rate mode : Constant
Bit rate : 768 kb/s
Channel(s) : 6 channels
Channel positions : Front: L C R, Side: L R, LFE
Sampling rate : 48.0 kHz
Frame rate : 93.750 FPS (512 spf)
Bit depth : 24 bits
Compression mode : Lossy
Stream size : 680 MiB (2%)

Audio #3
ID : 4354 (0x1102)
Menu ID : 1 (0x1)
Format : DTS
Format/Info : Digital Theater Systems
Mode : 16
Format settings, Endianness : Big
Codec ID : 130
Duration : 2 h 3 min
Bit rate mode : Constant
Bit rate : 768 kb/s
Channel(s) : 6 channels
Channel positions : Front: L C R, Side: L R, LFE
Sampling rate : 48.0 kHz
Frame rate : 93.750 FPS (512 spf)
Bit depth : 24 bits
Compression mode : Lossy
Stream size : 680 MiB (2%)

Audio #4
ID : 4355 (0x1103)
Menu ID : 1 (0x1)
Format : DTS
Format/Info : Digital Theater Systems
Mode : 16
Format settings, Endianness : Big
Codec ID : 130
Duration : 2 h 3 min
Bit rate mode : Constant
Bit rate : 768 kb/s
Channel(s) : 6 channels
Channel positions : Front: L C R, Side: L R, LFE
Sampling rate : 48.0 kHz
Frame rate : 93.750 FPS (512 spf)
Bit depth : 24 bits
Compression mode : Lossy
Stream size : 680 MiB (2%)

Audio #5
ID : 4356 (0x1104)
Menu ID : 1 (0x1)
Format : DTS
Format/Info : Digital Theater Systems
Mode : 16
Format settings, Endianness : Big
Codec ID : 130
Duration : 2 h 3 min
Bit rate mode : Constant
Bit rate : 768 kb/s
Channel(s) : 6 channels
Channel positions : Front: L C R, Side: L R, LFE
Sampling rate : 48.0 kHz
Frame rate : 93.750 FPS (512 spf)
Bit depth : 24 bits
Compression mode : Lossy
Stream size : 680 MiB (2%)

Audio #6
ID : 4357 (0x1105)
Menu ID : 1 (0x1)
Format : DTS
Format/Info : Digital Theater Systems
Mode : 16
Format settings, Endianness : Big
Codec ID : 130
Duration : 2 h 3 min
Bit rate mode : Constant
Bit rate : 768 kb/s
Channel(s) : 6 channels
Channel positions : Front: L C R, Side: L R, LFE
Sampling rate : 48.0 kHz
Frame rate : 93.750 FPS (512 spf)
Bit depth : 24 bits
Compression mode : Lossy
Stream size : 680 MiB (2%)

Audio #7
ID : 4358 (0x1106)
Menu ID : 1 (0x1)
Format : DTS
Format/Info : Digital Theater Systems
Mode : 16
Format settings, Endianness : Big
Codec ID : 130
Duration : 2 h 3 min
Bit rate mode : Constant
Bit rate : 768 kb/s
Channel(s) : 6 channels
Channel positions : Front: L C R, Side: L R, LFE
Sampling rate : 48.0 kHz
Frame rate : 93.750 FPS (512 spf)
Bit depth : 24 bits
Compression mode : Lossy
Stream size : 680 MiB (2%)

Audio #8
ID : 4359 (0x1107)
Menu ID : 1 (0x1)
Format : DTS
Format/Info : Digital Theater Systems
Mode : 16
Format settings, Endianness : Big
Codec ID : 130
Duration : 2 h 3 min
Bit rate mode : Constant
Bit rate : 768 kb/s
Channel(s) : 6 channels
Channel positions : Front: L C R, Side: L R, LFE
Sampling rate : 48.0 kHz
Frame rate : 93.750 FPS (512 spf)
Bit depth : 24 bits
Compression mode : Lossy
Stream size : 680 MiB (2%)

Audio #9
ID : 4360 (0x1108)
Menu ID : 1 (0x1)
Format : AC-3
Format/Info : Audio Coding 3
Mode extension : CM (complete main)
Format settings, Endianness : Big
Codec ID : 129
Duration : 2 h 3 min
Bit rate mode : Constant
Bit rate : 448 kb/s
Channel(s) : 6 channels
Channel positions : Front: L C R, Side: L R, LFE
Sampling rate : 48.0 kHz
Frame rate : 31.250 FPS (1536 spf)
Bit depth : 16 bits
Compression mode : Lossy
Stream size : 397 MiB (1%)

Audio #10
ID : 4361 (0x1109)
Menu ID : 1 (0x1)
Format : AC-3
Format/Info : Audio Coding 3
Mode extension : CM (complete main)
Format settings, Endianness : Big
Codec ID : 129
Duration : 2 h 3 min
Bit rate mode : Constant
Bit rate : 224 kb/s
Channel(s) : 2 channels
Channel positions : Front: L R
Sampling rate : 48.0 kHz
Frame rate : 31.250 FPS (1536 spf)
Bit depth : 16 bits
Compression mode : Lossy
Stream size : 198 MiB (1%)

Audio #11
ID : 4362 (0x110A)
Menu ID : 1 (0x1)
Format : AC-3
Format/Info : Audio Coding 3
Mode extension : CM (complete main)
Format settings, Endianness : Big
Codec ID : 129
Duration : 2 h 3 min
Bit rate mode : Constant
Bit rate : 224 kb/s
Channel(s) : 2 channels
Channel positions : Front: L R
Sampling rate : 48.0 kHz
Frame rate : 31.250 FPS (1536 spf)
Bit depth : 16 bits
Compression mode : Lossy
Stream size : 198 MiB (1%)

Text #1
ID : 4608 (0x1200)
Menu ID : 1 (0x1)
Format : PGS
Codec ID : 144

Text #2
ID : 4609 (0x1201)
Menu ID : 1 (0x1)
Format : PGS
Codec ID : 144

Text #3
ID : 4610 (0x1202)
Menu ID : 1 (0x1)
Format : PGS
Codec ID : 144

Text #4
ID : 4611 (0x1203)
Menu ID : 1 (0x1)
Format : PGS
Codec ID : 144

Text #5
ID : 4612 (0x1204)
Menu ID : 1 (0x1)
Format : PGS
Codec ID : 144

Text #6
ID : 4613 (0x1205)
Menu ID : 1 (0x1)
Format : PGS
Codec ID : 144

Text #7
ID : 4614 (0x1206)
Menu ID : 1 (0x1)
Format : PGS
Codec ID : 144

Text #8
ID : 4615 (0x1207)
Menu ID : 1 (0x1)
Format : PGS
Codec ID : 144

Text #9
ID : 4616 (0x1208)
Menu ID : 1 (0x1)
Format : PGS
Codec ID : 144

Text #10
ID : 4617 (0x1209)
Menu ID : 1 (0x1)
Format : PGS
Codec ID : 144

Text #11
ID : 4618 (0x120A)
Menu ID : 1 (0x1)
Format : PGS
Codec ID : 144

Text #12
ID : 4619 (0x120B)
Menu ID : 1 (0x1)
Format : PGS
Codec ID : 144

Text #13
ID : 4620 (0x120C)
Menu ID : 1 (0x1)
Format : PGS
Codec ID : 144

Text #14
ID : 4621 (0x120D)
Menu ID : 1 (0x1)
Format : PGS
Codec ID : 144

Text #15
ID : 4622 (0x120E)
Menu ID : 1 (0x1)
Format : PGS
Codec ID : 144
Duration : 2 h 3 min
Delay relative to video : 4 s 45 ms

Text #16
ID : 4623 (0x120F)
Menu ID : 1 (0x1)
Format : PGS
Codec ID : 144
Duration : 2 h 3 min
Delay relative to video : 4 s 45 ms

Text #17
ID : 4624 (0x1210)
Menu ID : 1 (0x1)
Format : PGS
Codec ID : 144
Duration : 2 h 3 min
Delay relative to video : 4 s 45 ms

Text #18
ID : 4625 (0x1211)
Menu ID : 1 (0x1)
Format : PGS
Codec ID : 144
Duration : 2 h 3 min
Delay relative to video : 4 s 45 ms

Text #19
ID : 4626 (0x1212)
Menu ID : 1 (0x1)
Format : PGS
Codec ID : 144
Duration : 2 h 3 min
Delay relative to video : 4 s 45 ms

Text #20
ID : 4627 (0x1213)
Menu ID : 1 (0x1)
Format : PGS
Codec ID : 144
Duration : 2 h 3 min
Delay relative to video : 4 s 45 ms
Reply
#2
Nice! Congrats on finishing it, spoRv
Reply
Thanks given by: spoRv
#3
(2017-12-04, 06:34 PM)PDB Wrote: Nice! Congrats on finishing it, spoRv

Thanks a lot PDB, it was a very difficult task, but now I'm pretty happy with the final result!
Reply
Thanks given by:
#4
Absolutely fantastic! Good job!
Reply
Thanks given by:
#5
Deleted
Reply
Thanks given by:
#6
Well, I'm thinking about an AAP-AR using two source (OAR and OM)! About grain: it will be always there Big Grin I like it, it helps to improve details and hide problems; but I can think about lowering it, though... Wink
Reply
Thanks given by: interaser
#7
Hey andrea, where are you going to share this?
Reply
Thanks given by:
#8
Dunno! Smile
Reply
Thanks given by:
#9
How did you overcome the pop ups after advert breaks ? Looking at the screenshots, this is sweet ! Would be great to add to the collection, being a massive Alien nut all ways round generally ! Do you have plans to do any of the others ? Would be happy to help if I could on anything
Reply
Thanks given by:
#10
(2018-08-11, 12:54 AM)ablehdTVer Wrote: How did you overcome the pop ups after advert breaks ? Looking at the screenshots, this is sweet ! Would be great to add to the collection, being a massive Alien nut all ways round generally ! Do you have plans to do any of the others ? Would be happy to help if I could on anything

I used several sources, so when popups where present in a source, I used the others.
Reply
Thanks given by:


Possibly Related Threads…
Thread Author Replies Views Last Post
  [Released] Alien: Covenant - IMAX/Open Matte/2.40:1 VAR Hybrid Hitcher 10 1,229 2023-01-05, 01:52 PM
Last Post: SHM
  [Released] Déjà Vu (2006) Open Matte Hitcher 2 738 2022-11-11, 11:37 PM
Last Post: SHM
Video [Released] Mortal Kombat (1995) - Open Matte Komposite CORTICALSYSTEMS 12 2,701 2022-11-07, 06:49 AM
Last Post: Vloddyr
  [No Longer Available] The Fellowship of the Ring Variable Aspect Ratio aka Open Matte PDB 49 24,134 2022-09-25, 06:58 AM
Last Post: CaveDoctor
  Blade Runner International Cut Regrade (Criterion Collection Laserdisc) PDB 44 46,914 2022-09-03, 07:07 AM
Last Post: BDgeek
  [Released] Showgirls - Remastered Open Matte - Cinema Polish Colek 34 25,462 2022-09-02, 04:16 AM
Last Post: Maniaco
  [Released] The Chronicles Of Riddick (2004)[Fundamental Collection™ #011] spoRv 19 13,860 2022-08-12, 07:28 PM
Last Post: PDB
  [No Longer Available] Quantum Of Solace Open Matte PDB 42 13,967 2022-06-17, 12:02 AM
Last Post: Hitcher
  [No Longer Available] Skyfall Open Matte (aka Skyfall IMAX Version) PDB 82 25,742 2022-06-10, 10:50 AM
Last Post: SHM
  [Released] The Tower aka Ta-weo 2012 Special Edition alleycat 5 685 2022-05-30, 01:03 AM
Last Post: stwd4nder2

Forum Jump:


Users browsing this thread: 2 Guest(s)