Hello guest, if you like this forum, why don't you register? https://fanrestore.com/member.php?action=register (December 14, 2021) x


Thread Rating:
  • 0 Vote(s) - 0 Average
  • 1
  • 2
  • 3
  • 4
  • 5
[Proposal] Sully - Open Matte Release
#1
Watched this on Netflix last night (second viewing because I think the film is great) and remembered that it was opened up for IMAX cinemas on release

is there a open matte version floating around (no pun intended)

https://www.youtube.com/watch?v=yi_5ytnIJCE
Reply
Thanks given by:
#2
Yes, there is. I've had a release from "m3th" for quite some time now. It's not very high bitrate, like in the 6 000 kbps, but it's fine. I muxed in the Atmos track from the BD on my end, and it has joined my videotheque right beside the scope version.
Reply
Thanks given by:
#3
Yes, there is a WEB DL Amazon

https://rutracker.org/forum/viewtopic.php?t=5429047

Video
ID : 1
Format : AVC
Format/Info : Advanced Video Codec
Format profile : High@L4
Format settings, CABAC : Yes
Format settings, ReFrames : 4 frames
Codec ID : V_MPEG4/ISO/AVC
Duration : 1h 35mn
Bit rate mode : Variable
Bit rate : 6 640 Kbps
Maximum bit rate : 15.0 Mbps
Width : 1 920 pixels
Height : 1 080 pixels
Display aspect ratio : 16:9
Frame rate mode : Constant
Frame rate : 23.976 (24000/1001) fps
Color space : YUV
Chroma subsampling : 4:2:0
Bit depth : 8 bits
Scan type : Progressive
Bits/(Pixel*Frame) : 0.134
Stream size : 4.45 GiB (91%)
Default : Yes
Forced : No
Color range : Limited
Color primaries : BT.709
Transfer characteristics : BT.709
Matrix coefficients : BT.709

Audio
ID : 2
Format : E-AC-3
Format/Info : Audio Coding 3
Format settings, Endianness : Big
Codec ID : A_EAC3
Duration : 1h 35mn
Bit rate mode : Constant
Bit rate : 640 Kbps
Channel(s) : 6 channels
Channel positions : Front: L C R, Side: L R, LFE
Sampling rate : 48.0 KHz
Frame rate : 187.500 fps (256 spf)
Compression mode : Lossy
Stream size : 439 MiB (9%)
Language : English
Default : Yes
Forced : No

Text #1
ID : 3
Format : UTF-8
Codec ID : S_TEXT/UTF8
Codec ID/Info : UTF-8 Plain Text
Duration : 1h 35mn
Bit rate : 77 bps
Count of elements : 1725
Stream size : 54.1 KiB (0%)
Language : English
Default : No
Forced : No

Text #2
ID : 4
Format : UTF-8
Codec ID : S_TEXT/UTF8
Codec ID/Info : UTF-8 Plain Text
Duration : 1h 35mn
Bit rate : 77 bps
Count of elements : 1725
Stream size : 54.1 KiB (0%)
Default : No
Forced
Reply
Thanks given by:


Possibly Related Threads…
Thread Author Replies Views Last Post
Exclamation open matte & full screen main thread spoRv 136 96,455 2024-02-15, 03:22 PM
Last Post: Nfsfan83
  Sabrina (1995) Open Matte HDTV Falcon 0 619 2023-09-17, 01:17 PM
Last Post: Falcon
  [Help] Running Man 35mm open matte Stamper 50 21,226 2023-06-03, 12:21 AM
Last Post: Gieferg
  [Request] Top Gun (1986): Ultimate Open Matte Version Hydra Spectre 9 2,955 2023-03-15, 10:18 AM
Last Post: Hydra Spectre
  [Request] Sonic the Hedgehog Movies (2020-2022) Open Matte Hydra Spectre 0 841 2023-02-27, 12:51 PM
Last Post: Hydra Spectre
  [Request] The Shining (1980) - US DVD 1st release bendermac 10 6,422 2022-01-19, 04:24 AM
Last Post: CloakedDragon97
  [Idea] The Matrix Resurrection (partly open matte) spoRv 6 2,430 2021-12-29, 10:20 AM
Last Post: Valeyard
  Deja Vu (2006) Open Matte Hitcher 6 3,312 2021-11-08, 05:52 PM
Last Post: Hitcher
  [Help] Fixing colors on a "brown" release! Is it possible? Help, please Evit 9 4,457 2021-05-20, 08:50 PM
Last Post: PDB
  [Cancelled] Ferris Bueller's Day Off - Open Matte Hitcher 7 4,243 2021-03-22, 04:02 PM
Last Post: PDB

Forum Jump:


Users browsing this thread: 1 Guest(s)