Hello guest, if you like this forum, why don't you register? https://fanrestore.com/member.php?action=register (December 14, 2021) x


Thread Rating:
  • 0 Vote(s) - 0 Average
  • 1
  • 2
  • 3
  • 4
  • 5
[Released] Strange Days (1995) 2.39/OpenMatte Variable AR
#1
A quick and dirty project here, 2.39/OM Variable AR of Strange Days.

Lossless cut/edit with VideoReDo; the base was Grym rls (20th Anniversary 2nd Kino, 23.976), all POV playback scenes* replaced with Amazon OM (24, remuxed to 23.976).  Due to difference in frame rates, 40something frames were cut from OM shots (mostly from end cuts and whip-pan blurred frames) to keep the sync with 20th Anniversary DTS-HD MA. Subtitles ported from Amazon rls (sans web-dl all caps English).

*all POV playback scenes that characters are watching; the two brief shots of Jericho killing after Tick was found brain-fried and in Max's end exposition were narrative flashbacks and are left in 2.39.

https://imgur.com/fecGp8h


MediaInfo:
General
Complete name              : SD95FHDVAR.mkv
Format                      : Matroska
Format version              : Version 4
File size                  : 16.2 GiB
Duration                    : 2 h 25 min
Overall bit rate mode      : Variable
Overall bit rate            : 16.0 Mb/s
Encoded date                : UTC 2023-01-11 01:02:39
Writing application        : mkvmerge v73.0.0 ('25 or 6 to 4') 64-bit
Writing library            : libebml v1.4.4 + libmatroska v1.7.1

Video
ID                          : 1
Format                      : AVC
Format/Info                : Advanced Video Codec
Format profile              : High@L4.1
Format settings            : CABAC / 4 Ref Frames
Format settings, CABAC      : Yes
Format settings, Reference  : 4 frames
Codec ID                    : V_MPEG4/ISO/AVC
Duration                    : 2 h 25 min
Bit rate mode              : Variable
Bit rate                    : 13.9 Mb/s
Maximum bit rate            : 30.0 Mb/s
Width                      : 1 920 pixels
Height                      : 1 080 pixels
Display aspect ratio        : 16:9
Frame rate mode            : Constant
Frame rate                  : 23.976 (23976/1000) FPS
Original frame rate        : 23.976 (24000/1001) FPS
Color space                : YUV
Chroma subsampling          : 4:2:0
Bit depth                  : 8 bits
Scan type                  : Progressive
Bits/(Pixel*Frame)          : 0.280
Stream size                : 14.1 GiB (87%)
Default                    : No
Forced                      : No

Audio
ID                          : 2
Format                      : DTS XLL
Format/Info                : Digital Theater Systems
Commercial name            : DTS-HD Master Audio
Codec ID                    : A_DTS
Duration                    : 2 h 25 min
Bit rate mode              : Variable
Bit rate                    : 2 082 kb/s
Channel(s)                  : 6 channels
Channel layout              : C L R Ls Rs LFE
Sampling rate              : 48.0 kHz
Frame rate                  : 93.750 FPS (512 SPF)
Bit depth                  : 16 bits
Compression mode            : Lossless
Delay relative to video    : -200 ms
Stream size                : 2.11 GiB (13%)
Language                    : English
Default                    : Yes
Forced                      : No

Text #1
ID                          : 3
Format                      : UTF-8
Codec ID                    : S_TEXT/UTF8
Codec ID/Info              : UTF-8 Plain Text
Duration                    : 2 h 18 min
Bit rate                    : 57 b/s
Frame rate                  : 0.186 FPS
Count of elements          : 1544
Stream size                : 57.7 KiB (0%)
Title                      : English
Language                    : English
Default                    : Yes
Forced                      : No

Text #2
ID                          : 4
Format                      : UTF-8
Codec ID                    : S_TEXT/UTF8
Codec ID/Info              : UTF-8 Plain Text
Duration                    : 2 h 18 min
Bit rate                    : 60 b/s
Frame rate                  : 0.254 FPS
Count of elements          : 2109
Stream size                : 61.0 KiB (0%)
Title                      : English SDH
Language                    : English
Default                    : Yes
Forced                      : No

Text #3
ID                          : 5
Format                      : UTF-8
Codec ID                    : S_TEXT/UTF8
Codec ID/Info              : UTF-8 Plain Text
Duration                    : 2 h 16 min
Bit rate                    : 69 b/s
Frame rate                  : 0.155 FPS
Count of elements          : 1270
Stream size                : 69.7 KiB (0%)
Title                      : Deutch
Language                    : German
Default                    : Yes
Forced                      : No

Text #4
ID                          : 6
Format                      : UTF-8
Codec ID                    : S_TEXT/UTF8
Codec ID/Info              : UTF-8 Plain Text
Duration                    : 2 h 16 min
Bit rate                    : 73 b/s
Frame rate                  : 0.165 FPS
Count of elements          : 1353
Stream size                : 73.4 KiB (0%)
Title                      : Deutch SDH
Language                    : German
Default                    : Yes
Forced                      : No

Text #5
ID                          : 7
Format                      : UTF-8
Codec ID                    : S_TEXT/UTF8
Codec ID/Info              : UTF-8 Plain Text
Duration                    : 2 h 16 min
Bit rate                    : 39 b/s
Frame rate                  : 0.154 FPS
Count of elements          : 1259
Stream size                : 39.1 KiB (0%)
Title                      : Français
Language                    : French
Default                    : Yes
Forced                      : No

Text #6
ID                          : 8
Format                      : UTF-8
Codec ID                    : S_TEXT/UTF8
Codec ID/Info              : UTF-8 Plain Text
Duration                    : 2 h 16 min
Bit rate                    : 52 b/s
Frame rate                  : 0.158 FPS
Count of elements          : 1291
Stream size                : 51.9 KiB (0%)
Title                      : Español
Language                    : Spanish
Default                    : Yes
Forced                      : No

Text #7
ID                          : 9
Format                      : UTF-8
Codec ID                    : S_TEXT/UTF8
Codec ID/Info              : UTF-8 Plain Text
Duration                    : 2 h 16 min
Bit rate                    : 37 b/s
Frame rate                  : 0.176 FPS
Count of elements          : 1440
Stream size                : 37.4 KiB (0%)
Title                      : Italiano
Language                    : Italian
Default                    : Yes
Forced                      : No

Text #8
ID                          : 10
Format                      : UTF-8
Codec ID                    : S_TEXT/UTF8
Codec ID/Info              : UTF-8 Plain Text
Duration                    : 2 h 24 min
Bit rate                    : 43 b/s
Frame rate                  : 0.149 FPS
Count of elements          : 1287
Stream size                : 45.5 KiB (0%)
Title                      : Português
Language                    : Portuguese
Default                    : Yes
Forced                      : No

Text #9
ID                          : 11
Format                      : UTF-8
Codec ID                    : S_TEXT/UTF8
Codec ID/Info              : UTF-8 Plain Text
Duration                    : 2 h 16 min
Bit rate                    : 49 b/s
Frame rate                  : 0.167 FPS
Count of elements          : 1369
Stream size                : 49.3 KiB (0%)
Title                      : Português BR
Language                    : Portuguese
Default                    : Yes
Forced                      : No

Text #10
ID                          : 12
Format                      : UTF-8
Codec ID                    : S_TEXT/UTF8
Codec ID/Info              : UTF-8 Plain Text
Duration                    : 2 h 24 min
Bit rate                    : 47 b/s
Frame rate                  : 0.149 FPS
Count of elements          : 1294
Stream size                : 49.9 KiB (0%)
Title                      : Nederlandse
Language                    : Dutch
Default                    : Yes
Forced                      : No

Text #11
ID                          : 13
Format                      : UTF-8
Codec ID                    : S_TEXT/UTF8
Codec ID/Info              : UTF-8 Plain Text
Duration                    : 2 h 16 min
Bit rate                    : 49 b/s
Frame rate                  : 0.158 FPS
Count of elements          : 1292
Stream size                : 49.2 KiB (0%)
Title                      : Dansk
Language                    : Danish
Default                    : Yes
Forced                      : No

Text #12
ID                          : 14
Format                      : UTF-8
Codec ID                    : S_TEXT/UTF8
Codec ID/Info              : UTF-8 Plain Text
Duration                    : 2 h 24 min
Bit rate                    : 46 b/s
Frame rate                  : 0.150 FPS
Count of elements          : 1295
Stream size                : 49.6 KiB (0%)
Title                      : Svenska
Language                    : Swedish
Default                    : Yes
Forced                      : No

Text #13
ID                          : 15
Format                      : UTF-8
Codec ID                    : S_TEXT/UTF8
Codec ID/Info              : UTF-8 Plain Text
Duration                    : 2 h 16 min
Bit rate                    : 56 b/s
Frame rate                  : 0.214 FPS
Count of elements          : 1754
Stream size                : 56.7 KiB (0%)
Title                      : Suomen
Language                    : Finnish
Default                    : Yes
Forced                      : No

Text #14
ID                          : 16
Format                      : UTF-8
Codec ID                    : S_TEXT/UTF8
Codec ID/Info              : UTF-8 Plain Text
Duration                    : 2 h 19 min
Bit rate                    : 54 b/s
Frame rate                  : 0.187 FPS
Count of elements          : 1569
Stream size                : 55.8 KiB (0%)
Title                      : Magyar
Language                    : Hungarian
Default                    : Yes
Forced                      : No

Text #15
ID                          : 17
Format                      : UTF-8
Codec ID                    : S_TEXT/UTF8
Codec ID/Info              : UTF-8 Plain Text
Duration                    : 2 h 18 min
Bit rate                    : 58 b/s
Frame rate                  : 0.227 FPS
Count of elements          : 1884
Stream size                : 59.5 KiB (0%)
Title                      : Polski
Language                    : Polish
Default                    : Yes
Forced                      : No

Text #16
ID                          : 18
Format                      : UTF-8
Codec ID                    : S_TEXT/UTF8
Codec ID/Info              : UTF-8 Plain Text
Duration                    : 2 h 16 min
Bit rate                    : 50 b/s
Frame rate                  : 0.217 FPS
Count of elements          : 1777
Stream size                : 50.2 KiB (0%)
Title                      : Română
Language                    : Romanian
Default                    : Yes
Forced                      : No

Text #17
ID                          : 19
Format                      : UTF-8
Codec ID                    : S_TEXT/UTF8
Codec ID/Info              : UTF-8 Plain Text
Duration                    : 2 h 16 min
Bit rate                    : 68 b/s
Frame rate                  : 0.124 FPS
Count of elements          : 1014
Stream size                : 68.3 KiB (0%)
Title                      : Ελληνικά
Language                    : Greek
Default                    : Yes
Forced                      : No

Text #18
ID                          : 20
Format                      : UTF-8
Codec ID                    : S_TEXT/UTF8
Codec ID/Info              : UTF-8 Plain Text
Duration                    : 2 h 18 min
Bit rate                    : 57 b/s
Frame rate                  : 0.219 FPS
Count of elements          : 1816
Stream size                : 58.6 KiB (0%)
Title                      : Türk
Language                    : Turkish
Default                    : Yes
Forced                      : No

Text #19
ID                          : 21
Format                      : UTF-8
Codec ID                    : S_TEXT/UTF8
Codec ID/Info              : UTF-8 Plain Text
Duration                    : 2 h 16 min
Bit rate                    : 54 b/s
Frame rate                  : 0.220 FPS
Count of elements          : 1796
Stream size                : 54.6 KiB (0%)
Title                      : Srpski
Language                    : Serbian
Default                    : Yes
Forced                      : No

Text #20
ID                          : 22
Format                      : UTF-8
Codec ID                    : S_TEXT/UTF8
Codec ID/Info              : UTF-8 Plain Text
Duration                    : 2 h 16 min
Bit rate                    : 55 b/s
Frame rate                  : 0.220 FPS
Count of elements          : 1797
Stream size                : 55.3 KiB (0%)
Title                      : Bosanski
Language                    : Bosnian
Default                    : Yes
Forced                      : No

Text #21
ID                          : 23
Format                      : UTF-8
Codec ID                    : S_TEXT/UTF8
Codec ID/Info              : UTF-8 Plain Text
Duration                    : 2 h 18 min
Bit rate                    : 37 b/s
Frame rate                  : 0.106 FPS
Count of elements          : 879
Stream size                : 37.5 KiB (0%)
Title                      : Slovenski
Language                    : Slovenian
Default                    : Yes
Forced                      : No

Text #22
ID                          : 24
Format                      : UTF-8
Codec ID                    : S_TEXT/UTF8
Codec ID/Info              : UTF-8 Plain Text
Duration                    : 2 h 18 min
Bit rate                    : 53 b/s
Frame rate                  : 0.216 FPS
Count of elements          : 1794
Stream size                : 54.4 KiB (0%)
Title                      : Hrvatski
Language                    : Croatian
Default                    : Yes
Forced                      : No

Text #23
ID                          : 25
Format                      : UTF-8
Codec ID                    : S_TEXT/UTF8
Codec ID/Info              : UTF-8 Plain Text
Duration                    : 2 h 16 min
Bit rate                    : 72 b/s
Frame rate                  : 0.163 FPS
Count of elements          : 1328
Stream size                : 72.6 KiB (0%)
Title                      : Русский
Language                    : Russian
Default                    : Yes
Forced                      : No

Text #24
ID                          : 26
Format                      : UTF-8
Codec ID                    : S_TEXT/UTF8
Codec ID/Info              : UTF-8 Plain Text
Duration                    : 2 h 16 min
Bit rate                    : 56 b/s
Frame rate                  : 0.217 FPS
Count of elements          : 1777
Stream size                : 56.7 KiB (0%)
Title                      : Český
Language                    : Czech
Default                    : Yes
Forced                      : No

Text #25
ID                          : 27
Format                      : UTF-8
Codec ID                    : S_TEXT/UTF8
Codec ID/Info              : UTF-8 Plain Text
Duration                    : 2 h 18 min
Bit rate                    : 80 b/s
Frame rate                  : 0.161 FPS
Count of elements          : 1340
Stream size                : 82.1 KiB (0%)
Title                      : български
Language                    : Bulgarian
Default                    : Yes
Forced                      : No

Text #26
ID                          : 28
Format                      : UTF-8
Codec ID                    : S_TEXT/UTF8
Codec ID/Info              : UTF-8 Plain Text
Duration                    : 2 h 24 min
Bit rate                    : 71 b/s
Frame rate                  : 0.157 FPS
Count of elements          : 1364
Stream size                : 75.7 KiB (0%)
Title                      : عربي
Language                    : Arabic
Default                    : Yes
Forced                      : No

Text #27
ID                          : 29
Format                      : UTF-8
Codec ID                    : S_TEXT/UTF8
Codec ID/Info              : UTF-8 Plain Text
Duration                    : 2 h 19 min
Bit rate                    : 74 b/s
Frame rate                  : 0.161 FPS
Count of elements          : 1339
Stream size                : 75.6 KiB (0%)
Title                      : עִברִית
Language                    : Hebrew
Default                    : Yes
Forced                      : No

Text #28
ID                          : 30
Format                      : UTF-8
Codec ID                    : S_TEXT/UTF8
Codec ID/Info              : UTF-8 Plain Text
Duration                    : 2 h 21 min
Bit rate                    : 127 b/s
Frame rate                  : 0.173 FPS
Count of elements          : 1472
Stream size                : 132 KiB (0%)
Title                      : ภาษาไทย
Language                    : Thai
Default                    : Yes
Forced                      : No

Text #29
ID                          : 31
Format                      : UTF-8
Codec ID                    : S_TEXT/UTF8
Codec ID/Info              : UTF-8 Plain Text
Duration                    : 2 h 19 min
Bit rate                    : 32 b/s
Frame rate                  : 0.221 FPS
Count of elements          : 1846
Stream size                : 33.3 KiB (0%)
Title                      : 中文
Language                    : Chinese
Default                    : Yes
Forced                      : No

Text #30
ID                          : 32
Format                      : UTF-8
Codec ID                    : S_TEXT/UTF8
Codec ID/Info              : UTF-8 Plain Text
Duration                    : 2 h 16 min
Bit rate                    : 55 b/s
Frame rate                  : 0.225 FPS
Count of elements          : 1841
Stream size                : 55.3 KiB (0%)
Title                      : 한국어
Language                    : Korean
Default                    : Yes
Forced                      : No

Text #31
ID                          : 33
Format                      : UTF-8
Codec ID                    : S_TEXT/UTF8
Codec ID/Info              : UTF-8 Plain Text
Duration                    : 2 h 18 min
Bit rate                    : 57 b/s
Frame rate                  : 0.196 FPS
Count of elements          : 1624
Stream size                : 58.5 KiB (0%)
Title                      : 日本語
Language                    : Japanese
Default                    : Yes
Forced                      : No

Menu
00:00:00.000                : en: The Attack Clip
00:09:51.924                : en: Iris on the Run
00:19:29.918                : en: Lenny & Keith
00:31:13.621                : en: Mr Funitsu
00:37:34.877                : en: SQUID-addicted
00:43:46.248                : en: Faith, the Singer
00:52:02.160                : en: Murder in Sunset Regent
01:01:26.432                : en: At Home with Faith
01:05:07.695                : en: Attack in Elevator
01:15:52.172                : en: The Chase
01:22:38.495                : en: Aunt Cecile's House
01:25:56.442                : en: The Murder Clip
01:31:49.712                : en: The Tick's Body
01:45:59.478                : en: Party of the Millennium
01:54:30.572                : en: Suite 2203
02:07:24.678                : en: The Countdown
02:25:11.369                : en: End Credits


PM and all that jazz
Reply
Thanks given by: Stamper , PDB , dvdmike
#2
Awesome! The masters have differences in frames? Apart from an initial delay, they should match at the same frame rate.
Unless the Amazon really has some extra stuff at reel changes.
Reply
Thanks given by:
#3
(2023-01-12, 10:03 AM)Stamper Wrote: Awesome! The masters have differences in frames? Apart from an initial delay, they should match at the same frame rate.
Unless the Amazon really has some extra stuff at reel changes.

Beyond the initial delay, the duration is the same but fps differ. So all OM scenes remuxed from 24 to 23.976 to match the base fps pushed out of sync throughout - about 2 sec at the end. When I trimmed frames here and there and brought it to sync, all subtitles from Amazon matched without 24>23.976 re-timing (only initial delay added).
Reply
Thanks given by:


Possibly Related Threads…
Thread Author Replies Views Last Post
  Thunderbolt (霹靂火)--1995 Jackie Chan movie, Film Whisperer HD reconstruction (UPDATE) The Film Whisperer 13 3,622 2024-04-16, 06:51 PM
Last Post: TemptingApricots
Video [Released] Mortal Kombat (1995) - Open Matte Komposite CORTICALSYSTEMS 13 5,431 2024-03-15, 09:26 AM
Last Post: ghost wolves
Video [Released] Ghost in the Shell (1995) - Spanish (Mexico) Dub1 (1998) (HBO Olé TV) metahades 0 694 2023-02-18, 02:29 AM
Last Post: metahades
  [No Longer Available] The Fellowship of the Ring Variable Aspect Ratio aka Open Matte PDB 49 33,023 2022-09-25, 06:58 AM
Last Post: CaveDoctor
  [Released] Waterworld (1995) [Fundamental Collection™ #009] spoRv 62 44,230 2020-10-20, 07:25 PM
Last Post: Hitcher
  [No Longer Available] Back To The Future - Open/Variable Matte (Upscale Project #1) PDB 40 40,796 2019-05-24, 02:27 AM
Last Post: PDB

Forum Jump:


Users browsing this thread: 1 Guest(s)