Hello guest, if you like this forum, why don't you register? https://fanrestore.com/member.php?action=register (December 14, 2021) x


Thread Rating:
  • 0 Vote(s) - 0 Average
  • 1
  • 2
  • 3
  • 4
  • 5
True Lies Disney plus
#1
https://whatsondisneyplus.com/whats-comi...w-zealand/

Who can rip this? See if it's a new master?
Reply
Thanks given by: maksnew
#2
(2022-12-26, 08:50 PM)dvdmike Wrote: https://whatsondisneyplus.com/whats-comi...w-zealand/

Who can rip this? See if it's a new master?

I am sure many will be waiting for a better source and will try to get it.
Reply
Thanks given by:
#3
its probably the same remaster that was released on Hulu not too long ago. I do have a copy of it, and its really good looking, but not perfect.
Reply
Thanks given by: dvdmike
#4
HDBits has a release of the Disney+ version. I don't know if it's from Australia or if that version would be different than the U.S. version (or where ever it was ripped... Brazil?).
It is supposedly the same master as Hulu, just with a higher bitrate.

Code:
General
Unique ID                  : 268629693444118563304941382311742756781 (0xCA1832723BAE0927B22AB454C7E357AD)
Complete name              : True.Lies.1994.1080p.DSNP.WEB-DL.DDP5.1.H.264-PaODeQUEiJO.mkv
Format                      : Matroska
Format version              : Version 4
File size                  : 6.72 GiB
Duration                    : 2 h 20 min
Overall bit rate mode      : Variable
Overall bit rate            : 6 833 kb/s
Writing application        : mkvmerge v69.420 ('Torresmo, cachaça e viola') 64-bit
Writing library            : libebml v1.4.2 + libmatroska v1.6.4

Video
ID                          : 1
Format                      : AVC
Format/Info                : Advanced Video Codec
Format profile              : High@L4
Format settings            : CABAC / 4 Ref Frames
Format settings, CABAC      : Yes
Format settings, Reference  : 4 frames
Codec ID                    : V_MPEG4/ISO/AVC
Duration                    : 2 h 20 min
Bit rate mode              : Variable
Bit rate                    : 6 573 kb/s
Maximum bit rate            : 12.7 Mb/s
Width                      : 1 920 pixels
Height                      : 1 080 pixels
Display aspect ratio        : 16:9
Frame rate mode            : Constant
Frame rate                  : 23.976 (24000/1001) FPS
Color space                : YUV
Chroma subsampling          : 4:2:0
Bit depth                  : 8 bits
Scan type                  : Progressive
Bits/(Pixel*Frame)          : 0.132
Stream size                : 6.46 GiB (96%)
Default                    : Yes
Forced                      : No
Color range                : Limited
Color primaries            : BT.709
Transfer characteristics    : BT.709
Matrix coefficients        : BT.709

Audio
ID                          : 2
Format                      : E-AC-3
Format/Info                : Enhanced AC-3
Commercial name            : Dolby Digital Plus
Codec ID                    : A_EAC3
Duration                    : 2 h 20 min
Bit rate mode              : Constant
Bit rate                    : 256 kb/s
Channel(s)                  : 6 channels
Channel layout              : L R C LFE Ls Rs
Sampling rate              : 48.0 kHz
Frame rate                  : 31.250 FPS (1536 SPF)
Compression mode            : Lossy
Stream size                : 258 MiB (4%)
Language                    : English
Service kind                : Complete Main
Default                    : Yes
Forced                      : No

Text #1
ID                          : 3
Format                      : UTF-8
Codec ID                    : S_TEXT/UTF8
Codec ID/Info              : UTF-8 Plain Text
Duration                    : 2 h 17 min
Bit rate                    : 50 b/s
Count of elements          : 1772
Stream size                : 50.6 KiB (0%)
Language                    : English
Default                    : No
Forced                      : No

Text #2
ID                          : 4
Format                      : UTF-8
Codec ID                    : S_TEXT/UTF8
Codec ID/Info              : UTF-8 Plain Text
Duration                    : 2 h 20 min
Bit rate                    : 55 b/s
Count of elements          : 2010
Stream size                : 56.7 KiB (0%)
Title                      : SDH
Language                    : English
Default                    : No
Forced                      : No

Text #3
ID                          : 5
Format                      : UTF-8
Codec ID                    : S_TEXT/UTF8
Codec ID/Info              : UTF-8 Plain Text
Duration                    : 2 h 19 min
Bit rate                    : 44 b/s
Count of elements          : 1323
Stream size                : 45.2 KiB (0%)
Language                    : Czech
Default                    : No
Forced                      : No

Text #4
ID                          : 6
Format                      : UTF-8
Codec ID                    : S_TEXT/UTF8
Codec ID/Info              : UTF-8 Plain Text
Duration                    : 2 h 16 min
Bit rate                    : 44 b/s
Count of elements          : 1346
Stream size                : 44.5 KiB (0%)
Language                    : Danish
Default                    : No
Forced                      : No

Text #5
ID                          : 7
Format                      : UTF-8
Codec ID                    : S_TEXT/UTF8
Codec ID/Info              : UTF-8 Plain Text
Duration                    : 2 h 16 min
Bit rate                    : 43 b/s
Count of elements          : 1341
Stream size                : 43.5 KiB (0%)
Language                    : German
Default                    : No
Forced                      : No

Text #6
ID                          : 8
Format                      : UTF-8
Codec ID                    : S_TEXT/UTF8
Codec ID/Info              : UTF-8 Plain Text
Duration                    : 2 h 16 min
Bit rate                    : 79 b/s
Count of elements          : 1349
Stream size                : 79.6 KiB (0%)
Language                    : Greek
Default                    : No
Forced                      : No

Text #7
ID                          : 9
Format                      : UTF-8
Codec ID                    : S_TEXT/UTF8
Codec ID/Info              : UTF-8 Plain Text
Duration                    : 2 h 16 min
Bit rate                    : 45 b/s
Count of elements          : 1315
Stream size                : 45.7 KiB (0%)
Title                      : Spanish (Latin America)
Language                    : Spanish
Default                    : No
Forced                      : No

Text #8
ID                          : 10
Format                      : UTF-8
Codec ID                    : S_TEXT/UTF8
Codec ID/Info              : UTF-8 Plain Text
Duration                    : 2 h 16 min
Bit rate                    : 47 b/s
Count of elements          : 1334
Stream size                : 47.4 KiB (0%)
Title                      : Spanish (Spain)
Language                    : Spanish
Default                    : No
Forced                      : No

Text #9
ID                          : 11
Format                      : UTF-8
Codec ID                    : S_TEXT/UTF8
Codec ID/Info              : UTF-8 Plain Text
Duration                    : 2 h 16 min
Bit rate                    : 40 b/s
Count of elements          : 1287
Stream size                : 40.7 KiB (0%)
Language                    : Finnish
Default                    : No
Forced                      : No

Text #10
ID                          : 12
Format                      : UTF-8
Codec ID                    : S_TEXT/UTF8
Codec ID/Info              : UTF-8 Plain Text
Duration                    : 2 h 19 min
Bit rate                    : 43 b/s
Count of elements          : 1327
Stream size                : 44.5 KiB (0%)
Language                    : French
Default                    : No
Forced                      : No

Text #11
ID                          : 13
Format                      : UTF-8
Codec ID                    : S_TEXT/UTF8
Codec ID/Info              : UTF-8 Plain Text
Duration                    : 2 h 16 min
Bit rate                    : 45 b/s
Count of elements          : 1327
Stream size                : 45.8 KiB (0%)
Language                    : Hungarian
Default                    : No
Forced                      : No

Text #12
ID                          : 14
Format                      : UTF-8
Codec ID                    : S_TEXT/UTF8
Codec ID/Info              : UTF-8 Plain Text
Duration                    : 2 h 19 min
Bit rate                    : 38 b/s
Count of elements          : 1307
Stream size                : 39.3 KiB (0%)
Language                    : Italian
Default                    : No
Forced                      : No

Text #13
ID                          : 15
Format                      : UTF-8
Codec ID                    : S_TEXT/UTF8
Codec ID/Info              : UTF-8 Plain Text
Duration                    : 2 h 16 min
Bit rate                    : 44 b/s
Count of elements          : 1333
Stream size                : 44.1 KiB (0%)
Language                    : Dutch
Default                    : No
Forced                      : No

Text #14
ID                          : 16
Format                      : UTF-8
Codec ID                    : S_TEXT/UTF8
Codec ID/Info              : UTF-8 Plain Text
Duration                    : 2 h 16 min
Bit rate                    : 43 b/s
Count of elements          : 1344
Stream size                : 43.7 KiB (0%)
Language                    : Norwegian
Default                    : No
Forced                      : No

Text #15
ID                          : 17
Format                      : UTF-8
Codec ID                    : S_TEXT/UTF8
Codec ID/Info              : UTF-8 Plain Text
Duration                    : 2 h 16 min
Bit rate                    : 42 b/s
Count of elements          : 1331
Stream size                : 42.6 KiB (0%)
Language                    : Polish
Default                    : No
Forced                      : No

Text #16
ID                          : 18
Format                      : UTF-8
Codec ID                    : S_TEXT/UTF8
Codec ID/Info              : UTF-8 Plain Text
Duration                    : 2 h 16 min
Bit rate                    : 45 b/s
Count of elements          : 1334
Stream size                : 46.0 KiB (0%)
Title                      : Portuguese (Brazil)
Language                    : Portuguese
Default                    : No
Forced                      : No

Text #17
ID                          : 19
Format                      : UTF-8
Codec ID                    : S_TEXT/UTF8
Codec ID/Info              : UTF-8 Plain Text
Duration                    : 2 h 16 min
Bit rate                    : 45 b/s
Count of elements          : 1339
Stream size                : 45.3 KiB (0%)
Title                      : Portuguese (Portugal)
Language                    : Portuguese
Default                    : No
Forced                      : No

Text #18
ID                          : 20
Format                      : UTF-8
Codec ID                    : S_TEXT/UTF8
Codec ID/Info              : UTF-8 Plain Text
Duration                    : 2 h 16 min
Bit rate                    : 47 b/s
Count of elements          : 1384
Stream size                : 47.0 KiB (0%)
Language                    : Romanian
Default                    : No
Forced                      : No

Text #19
ID                          : 21
Format                      : UTF-8
Codec ID                    : S_TEXT/UTF8
Codec ID/Info              : UTF-8 Plain Text
Duration                    : 2 h 19 min
Bit rate                    : 44 b/s
Count of elements          : 1337
Stream size                : 45.0 KiB (0%)
Language                    : Swedish
Default                    : No
Forced                      : No

Text #20
ID                          : 22
Format                      : UTF-8
Codec ID                    : S_TEXT/UTF8
Codec ID/Info              : UTF-8 Plain Text
Duration                    : 2 h 16 min
Bit rate                    : 48 b/s
Count of elements          : 1327
Stream size                : 48.1 KiB (0%)
Language                    : Turkish
Default                    : No
Forced                      : No

I haven't had a chance to sit through it yet, but I've checked some of it out.
It still seems to have some crushed black and white levels like the Hulu rip.  It could be that it was scanned for HDR, but poorly converted to SDR.  It could be that some moron didn't know that luma is supposed to be 16-235 not 0-255.
Good grain when present.  Could use some color correction of course.

[Image: IgY6y0e.png]
[Image: qimEMXK.png]
[Image: tiSiKBM.png]
Reply
Thanks given by: Hitcher , dvdmike , stwd4nder2 , dwalkerdon , MrBrown
#5
I am not on hdbits (thought I was) but the only one I can find is 4k?

Edit, nope just a weird listing
Reply
Thanks given by:
#6
Doctor M, one on Bits is the Hulu version (same one PDB tried to repair as best he could), it was misnamed DSNP at the time and caused alot of people confusion.Bitrate corresponds to Hulu around 6.5/7Mbps average, not DSNP, which would be around 8.5/9Mbps average for 1080p.

One on DSNP Aus from tomorrow will likely be same DNR’ed master (as per dwalkerdon assumption) but with higher 8.5/9Mbps bitrate.
Reply
Thanks given by:
#7
This is the answer I got when I asked HDB for help downloading a source from D+ AUS
Reply
Thanks given by:
#8
Outside of him maybe getting it from DSNP Hotstar India which is lower bitrate for 1080p/4k, all other DSNP countries are usually around 8.5/9Mbps (including Spain) and Hulu does have bitrates going upto to around 6.5Mbps (most are around 5.5/6Mbps) for some 1080p movies so not sure I believe him but if he is telling the truth, guess Aus will be the same.
Reply
Thanks given by:
#9
I wonder if 4K will be available in AUS for this.
Reply
Thanks given by:
#10
(2022-12-29, 06:44 PM)maksnew Wrote: I wonder if 4K will be available in AUS for this.

Just checked. It doesn't seem available here (yet).
Reply
Thanks given by:


Possibly Related Threads…
Thread Author Replies Views Last Post
  Splash Disney + dvdmike 0 825 2022-11-14, 07:48 PM
Last Post: dvdmike
  True Lies LPP print preservation funding little-endian 4 11,094 2018-05-09, 04:49 PM
Last Post: little-endian

Forum Jump:


Users browsing this thread: 1 Guest(s)